Welcome Guest (Login)Index How To Upload
User: Password:
Create account Recover password

Torrent's details
File Name:Wasserman and Friends - Beacon - NYC - 3/26/94 - Request (Mersand)      09841e0617e634ad1a04c153687f74c65d618d68
Added:05/20/08 - 10:30:53 - chrisdavis - 721.56 MB
Details:Americana   etree --
Description:Rob wasserman and Friends
Beacon Theater, NYC
March 26, 1994

"Evening of Trios"

source:  Schoeps MK21 > DAT's
taper:  unknown

transfer:  DAT 60es > M-Audio Audiophile USB > wav > flac
transfer:  Joshua Braveman

tracking:  FLAC > wav > CD Wave Editor > FLAC (level 6)
tracking:  Chris Davis

Disc 1:

01. Bass Jam > crowd
02. intro--David Johanssen
03. David Speaks
04. White Wheeled Limosine (Hornsby)
05. My Foolish Heart (Victoria Williams)
06. Hear Me Baby (Chris Whitley)
07. Rex Foundation announcement
08. Spikes Balls (Rob solo)
09. Gypsys #1 and #2 (Rob and Matt Haimovitz)
10. Fantasy is Reality (John Wesley Harding)
11. God Lives Upstairs (John Wesley Harding)
12. What a Wonderful World (Victoria Williams)
13. Hey, Hey > Just Jammin' (Victoria Williams)
14. Rex Foundation announcement
15. Easy Answers (Bob Wier)
16. tuning
17. crowd
18. Maggies Farm (Bob Wier)

Disc 2:

01. Should Had Been Me (Bob Weir)
02. Fever (Bob Weir)
03. Take me to the River (Bob Weir)
04. Throwing Stones (Bob Weir)
05. Home is Where You Get Across (Chris Whitley)
06. banter
07. Dustin off the Bass (Lou Reed)
08. One for the Road (Lou Reed)
09. banter, David Sanborne intro
10. crowd
11. Beginning of the Great Adventure (Lou Reed)
12. Jesus (Lou Reed)
13. Sattelite of Love (Lou Reed)
14. Tracks of my Tears (Lou Reed)
15. Dirty Boulevard (Lou Reed)
16. intros for the "Grand Finale"; all performers.
17. Waiting for the Man
18. outtro

In an effort to make things easier, I have only named the
main vocalist on each track.  The evening features a
revolving door of musicians, all on stage at one time or
another; including:
Rob Wasserman
Bruce Hornsby
Victoria Williams
Chris Whitley
Bob Wier
John Wesley Harding
Matt Haimovitz
Jimmy Scott
David Sanborne
George Ressili
Michael Brackler

Ive done my best wih the setlist, any help is appreciated.
Thanks to Josh for getting me invloved in this project!
Enjoy...Chris Davis...(8/12/05)

wasserman1994-03-26d1t01.flac:c15f066c14711d7701409d38f209e193
wasserman1994-03-26d1t02.flac:a2c5045a32e8581cdca08a9d25a9e1d4
wasserman1994-03-26d1t03.flac:8eb0c7632cba504f6b63b4c099673653
wasserman1994-03-26d1t04.flac:1dd2d8a657778b200b3a4c094097990e
wasserman1994-03-26d1t05.flac:df7761713d1ae98cfd3960ebe2ca4676
wasserman1994-03-26d1t06.flac:f624fa6edbd82eee57d3197dfbee34a5
wasserman1994-03-26d1t07.flac:d7b0be4e911ff6cefb6e5016b9c8f3f9
wasserman1994-03-26d1t08.flac:ba33df0b274f3d9f26a70dc21e0d028c
wasserman1994-03-26d1t09.flac:81d4af6af2ff626b3f56e380fdd2bc04
wasserman1994-03-26d1t10.flac:9d9de274324360aa0e66aa9a71e8619a
wasserman1994-03-26d1t11.flac:303e282f57d437dadf67275ba3342423
wasserman1994-03-26d1t12.flac:16e95024d4df38d860543928e7dad63a
wasserman1994-03-26d1t13.flac:35b3661c81b225946d5e4a443d75f643
wasserman1994-03-26d1t14.flac:a15a7b27bc9b9eae6503b5ff5dcea1d2
wasserman1994-03-26d1t15.flac:9929d93d7108b0a1ee434847c0fdd60b
wasserman1994-03-26d1t16.flac:8d73110f00b63a185561897687de59f6
wasserman1994-03-26d1t17.flac:31bd31723e7ec0299a321783748172ce
wasserman1994-03-26d1t18.flac:35f0b229276827cd7bc379cdf0562bef
wasserman1994-03-26d2t01.flac:c8217b99bc94611060418236af778cda
wasserman1994-03-26d2t02.flac:9f5127bdbac4c0b25ca73f9d95d3250c
wasserman1994-03-26d2t03.flac:402a34cd09c76611d7d69bb4a9dba5c7
wasserman1994-03-26d2t04.flac:9c524a3999ba7267f87a6ed68c8bc17f
wasserman1994-03-26d2t05.flac:a5ea83465e889ef74171035278eeebe5
wasserman1994-03-26d2t06.flac:86fb3cd49f7e37706dee3ee9f9d04eeb
wasserman1994-03-26d2t07.flac:9fb52fa57d1e48f9926acb5ad7b1f1e6
wasserman1994-03-26d2t08.flac:9b78b5a1d93e4e20eeb4fed22cf944dc
wasserman1994-03-26d2t09.flac:e52c5adc3f14f06e030ebe04c16d48d7
wasserman1994-03-26d2t10.flac:fddaf6f7a961f04c6e145e2c78930c90
wasserman1994-03-26d2t11.flac:66f4f16ba336bead81e1cd686f7a2699
wasserman1994-03-26d2t12.flac:35062569cc845770b5c886466330d3e9
wasserman1994-03-26d2t13.flac:834da74699adf726ef2c99bef720e064
wasserman1994-03-26d2t14.flac:953f3dc91b4ded54e2e0fcfad15b3c91
wasserman1994-03-26d2t15.flac:5d9d9cb342cb707b8b8c2f0b7e739db5
wasserman1994-03-26d2t16.flac:9c2f07a34a3f4de236686fb441e4bbd1
wasserman1994-03-26d2t17.flac:1196431b3ab6837e942d19deecb70e77
wasserman1994-03-26d2t18.flac:8d5f501cba8202812582de669c73107b

   length     expanded size    cdr  WAVE problems  fmt   ratio  filename
    2:11.65       23261324 B   ---   --   ---xx   flac  0.3536  wasserman1994-03-26d1t01.flac
    0:52.44        9276332 B   ---   --   ---xx   flac  0.4686  wasserman1994-03-26d1t02.flac
    5:13.55       55342604 B   ---   --   ---xx   flac  0.3872  wasserman1994-03-26d1t03.flac
    5:48.66       61542476 B   ---   --   ---xx   flac  0.4646  wasserman1994-03-26d1t04.flac
    5:17.48       56031740 B   ---   --   ---xx   flac  0.3466  wasserman1994-03-26d1t05.flac
    8:08.42       86182028 B   ---   --   ---xx   flac  0.4439  wasserman1994-03-26d1t06.flac
    1:15.57       13364108 B   ---   --   ---xx   flac  0.4239  wasserman1994-03-26d1t07.flac
    2:50.71       30155036 B   ---   --   ---xx   flac  0.3921  wasserman1994-03-26d1t08.flac
    9:38.54      102086252 B   ---   --   ---xx   flac  0.4276  wasserman1994-03-26d1t09.flac
    5:22.24       56857292 B   ---   --   ---xx   flac  0.4703  wasserman1994-03-26d1t10.flac
    5:50.74       61914092 B   ---   --   ---xx   flac  0.4864  wasserman1994-03-26d1t11.flac
    3:59.59       42298412 B   ---   --   ---xx   flac  0.4509  wasserman1994-03-26d1t12.flac
    8:12.23       86842940 B   ---   --   ---xx   flac  0.5067  wasserman1994-03-26d1t13.flac
    1:06.67       11800028 B   ---   --   ---xx   flac  0.3805  wasserman1994-03-26d1t14.flac
    7:38.57       80925308 B   ---   --   ---xx   flac  0.5354  wasserman1994-03-26d1t15.flac
    0:23.27        4120748 B   ---   --   ---xx   flac  0.3538  wasserman1994-03-26d1t16.flac
    0:26.43        4687580 B   ---   --   ---xx   flac  0.3229  wasserman1994-03-26d1t17.flac
    5:02.34       53352812 B   ---   --   ---xx   flac  0.5006  wasserman1994-03-26d1t18.flac
    4:53.31       51758156 B   ---   --   ---xx   flac  0.3808  wasserman1994-03-26d2t01.flac
    5:13.43       55314380 B   ---   --   ---xx   flac  0.4335  wasserman1994-03-26d2t02.flac
    4:07.59       43709612 B   ---   --   ---xx   flac  0.5293  wasserman1994-03-26d2t03.flac
    8:00.05       84683804 B   ---   --   ---xx   flac  0.5375  wasserman1994-03-26d2t04.flac
    6:33.28       69391100 B   ---   --   ---xx   flac  0.3923  wasserman1994-03-26d2t05.flac
    2:08.29       22647452 B   ---   --   ---xx   flac  0.3284  wasserman1994-03-26d2t06.flac
    5:10.33       54761660 B   ---   --   ---xx   flac  0.4159  wasserman1994-03-26d2t07.flac
    4:43.51       50041196 B   ---   --   ---xx   flac  0.3925  wasserman1994-03-26d2t08.flac
    0:18.33        3252860 B   ---   --   ---xx   flac  0.3571  wasserman1994-03-26d2t09.flac
    0:21.46        3812636 B   ---   --   ---xx   flac  0.2592  wasserman1994-03-26d2t10.flac
    7:36.60       80579564 B   ---   --   ---xx   flac  0.4833  wasserman1994-03-26d2t11.flac
    5:48.25       61446044 B   ---   --   ---xx   flac  0.3910  wasserman1994-03-26d2t12.flac
    5:23.38       57066620 B   ---   --   ---xx   flac  0.4346  wasserman1994-03-26d2t13.flac
    2:57.70       31387484 B   ---   --   ---xx   flac  0.4740  wasserman1994-03-26d2t14.flac
    4:48.31       50876156 B   ---   --   ---xx   flac  0.5362  wasserman1994-03-26d2t15.flac
    2:17.62       24312668 B   ---   --   ---xx   flac  0.4444  wasserman1994-03-26d2t16.flac
    5:37.13       59477420 B   ---   --   ---xx   flac  0.5887  wasserman1994-03-26d2t17.flac
    2:03.46       21805436 B   ---   --   ---xx   flac  0.4789  wasserman1994-03-26d2t18.flac
  157:26.38     1666365360 B                            0.4540  (36 files)
Show/Hide Files:
39 files
Speed:0 KB/sec
Thanks:
pomkog, gems, poordevil, mersand, rippledfingers, oleo86, deadeasy, dino7650,

Donate

Donations Page

LL Lists
Dead - With Source
Dead - No Source
Jerry - With Source
Jerry - No Source

Radio
gdradio.net       Nugs.net
BSR-88.1       KXCI
KDHX       Jazz
KPFA       Phempa
KFAI      

Winamp      RealPlayer      Foobar

      

Poll: drumz/space
loved it live and on tape (226)  (47%)
didn't love it live or on tape (46)  (9%)
sometimes in some shows on some drugs (163)  (34%)
not my thing AT ALL, i like the rock&roll part (41)  (8%)
    
Previous Polls

[ Script Execution time: 0.0771 sec. ] - [ GZIP: enabled ]
BtitTracker (1.3.2) by Btiteam