Welcome Guest (Login)Index How To Upload
User: Password:
Create account Recover password

Torrent's details
File Name:jh70-07-30.126111.mtx.dusborne.flac16      5f86840b78deeae3d7bff39e62f8c07731c783bb
Added:11/12/13 - 09:54:13 - germain - 639.52 MB
Details:Jimi Hendrix   Hendix Project   Matrix   etree   etree-md5   etree-txt   etree-cmt --
Description:Jimi Hendrix
July 30, 1970
Rainbow Bridge Vibratory Color/Sound Experiment
Haleakala Volcano Crater, Maui, HI

2 Source Matrix
----------------------------------------------------------------------------------

Soundboard
----------------------------------------------------------------------------------

Maui Wowee

Bob Terry Hi-Fi VHS Soundboard Source And Bob Terry Denon HD6 /100 Soundboard
Source Patched With Audience Master Tape

Thanks to MP and zombywoof57 for the tapes.
Thanks To Karsten for his work patching it all together.

Audience
----------------------------------------------------------------------------------

Master Tape > Nakamichi Dragon > CDR

Here we have the complete 1st show and a incomplete 2nd show. Audience Master.
----------------------------------------------------------------------------------
---Thank you Hawkfan369 for distributing both the AUD and SBD sources.
---Thank you to everybody at Crosstowntorrents.
---Thank you Germain for your advice, encouragement, guidance and seeding.

Matrix by dusborne

11-04-2013
-----------------------------------------------------------------------------------

Set 1

101 - jh70-07-30s1t01 - Chuck Wein Intro*
102 - jh70-07-30s1t02 - Spanish Castle Magic
103 - jh70-07-30s1t03 - Lover Man
104 - jh70-07-30s1t04 - Hey Baby ->
105 - jh70-07-30s1t05 - In From The Storm
106 - jh70-07-30s1t06 - Message To Love
107 - jh70-07-30s1t07 - Foxy Lady
108 - jh70-07-30s1t08 - Hear My Train A Comin'
109 - jh70-07-30s1t09 - Voodoo  Child (Slight Return) ->
110 - jh70-07-30s1t10 - Drum Solo ->*
111 - jh70-07-30s1t11 - Fire
112 - jh70-07-30s1t12 - Purple Haze

Set 2

201 - jh70-07-30s2t01 - Dolly Dagger ->*
202 - jh70-07-30s2t02 - Villanova Junction ->
203 - jh70-07-30s2t03 - Ezy Rider
204 - jh70-07-30s2t04 - Red House
205 - jh70-07-30s2t05 - Freedom
206 - jh70-07-30s2t06 - Beginnings ->
207 - jh70-07-30s2t07 - Straight Ahead
208 - jh70-07-30s2t08 - Land of the New Rising Sun ->*
209 - jh70-07-30s2t09 - Midnight Lightning ->*
210 - jh70-07-30s2t10 - Drum Solo ->*
211 - jh70-07-30s2t11 - Stone Free*  

*SBD Only
----------------------------------------------------------------------------------

Tagging notes:
Show information is embedded within the header of each flac file.
It will display on any player capable of directly playing flac
files. If converted to wav during processing, all tags will be
stripped, however audio data will remain unaffected. If you must
transcode to a lossy format, do so directly Flac > Lossy.
Use ffp to validate audio integrity.
Md5 values will change if tagging is altered.

Dave Usborne 11-04-2013

----------------------------------------------------------------------------------
length     expanded size    cdr  WAVE problems  fmt   ratio  filename
    4:16.38       45247820 B   ---   --   ---xx   flac  0.5281  jh70-07-30s1t01.flac
    4:40.30       49462604 B   ---   --   ---xx   flac  0.5639  jh70-07-30s1t02.flac
    3:09.07       33356108 B   ---   --   ---xx   flac  0.5811  jh70-07-30s1t03.flac
    6:12.30       65691404 B   ---   --   ---xx   flac  0.6066  jh70-07-30s1t04.flac
    4:36.30       48757004 B   ---   --   ---xx   flac  0.6194  jh70-07-30s1t05.flac
    4:57.53       52515500 B   ---   --   ---xx   flac  0.5763  jh70-07-30s1t06.flac
    5:10.00       54684044 B   ---   --   ---xx   flac  0.5759  jh70-07-30s1t07.flac
    9:21.00       98960444 B   ---   --   ---xx   flac  0.5722  jh70-07-30s1t08.flac
    6:07.37       64825868 B   ---   --   ---xx   flac  0.6074  jh70-07-30s1t09.flac
    0:50.38        8909420 B   ---   --   ---xx   flac  0.5776  jh70-07-30s1t10.flac
    3:47.67       40200428 B   ---   --   ---xx   flac  0.5659  jh70-07-30s1t11.flac
    4:29.51       47571596 B   ---   --   ---xx   flac  0.5975  jh70-07-30s1t12.flac
    4:46.00       50450444 B   ---   --   ---xx   flac  0.5642  jh70-07-30s2t01.flac
    5:45.45       60963884 B   ---   --   ---xx   flac  0.5501  jh70-07-30s2t02.flac
    5:00.15       52955324 B   ---   --   ---xx   flac  0.6171  jh70-07-30s2t03.flac
    6:48.15       72006524 B   ---   --   ---xx   flac  0.5636  jh70-07-30s2t04.flac
    4:18.00       45511244 B   ---   --   ---xx   flac  0.5807  jh70-07-30s2t05.flac
    8:51.00       93668444 B   ---   --   ---xx   flac  0.5709  jh70-07-30s2t06.flac
    3:06.00       32810444 B   ---   --   ---xx   flac  0.5690  jh70-07-30s2t07.flac
    2:49.23       29865740 B   ---   --   ---xx   flac  0.5471  jh70-07-30s2t08.flac
    1:55.52       20408348 B   ---   --   ---xx   flac  0.5921  jh70-07-30s2t09.flac
    2:49.00       29811644 B   ---   --   ---xx   flac  0.5463  jh70-07-30s2t10.flac
    6:02.53       63981500 B   ---   --   ---xx   flac  0.5662  jh70-07-30s2t11.flac
  109:50.59     1162615780 B                            0.5763  (23 files)
---------------------------------------------------------------------------------

ea1db32156ba514ff7ff525c45ad79e3 *jh70-07-30s1t01.flac
d6043aac29bd81ee07bf6c21518eb088 *jh70-07-30s1t02.flac
4a42ed7b867c5abb7159c73caec361f0 *jh70-07-30s1t03.flac
b0ebf8bd8aa76d3d9806b78fe123836f *jh70-07-30s1t04.flac
e294e276f00075a877c450d488848976 *jh70-07-30s1t05.flac
79bc3ed26eb3f27b23ada33fd3fcc3f0 *jh70-07-30s1t06.flac
569e15c65e37880e94d21c3e26691e10 *jh70-07-30s1t07.flac
0f842b90ce21cf31bf88ecd1ab45d03e *jh70-07-30s1t08.flac
3151150974035e723823286d45a1c9c4 *jh70-07-30s1t09.flac
6110abbb5a5c5cb056723b5987765751 *jh70-07-30s1t10.flac
934998c21331de61cf368d32c6834ad4 *jh70-07-30s1t11.flac
e164d4ee034899845b446b3d32f6defd *jh70-07-30s1t12.flac
61d82ab83786294f279997a8da38f9f4 *jh70-07-30s2t01.flac
31d8b5221f8bbcb42b3dd341edef7920 *jh70-07-30s2t02.flac
dcb3228d6132caf2a365d4bb7fb90631 *jh70-07-30s2t03.flac
2fc08cde451d830d024acfbb3e1375f7 *jh70-07-30s2t04.flac
441eb7a8ea48cba3d9a3de51153ead02 *jh70-07-30s2t05.flac
1f6e72d184690c9b91203c6742844894 *jh70-07-30s2t06.flac
be8fcb89b319969519a18b7a11d55fe3 *jh70-07-30s2t07.flac
24ed4a3a21e9988ea1debfc0e4050611 *jh70-07-30s2t08.flac
3bcbdd14d8cc020fc211aa4a0ce8d970 *jh70-07-30s2t09.flac
415465a8b634476fe250a140e524645b *jh70-07-30s2t10.flac
c48a2d5c5d1a708b24dc8a7864634736 *jh70-07-30s2t11.flac
---------------------------------------------------------------------------------

jh70-07-30s1t01.flac:1a7a31957f13822d1d849a64011c13b8
jh70-07-30s1t02.flac:4bd95d684bf619bd2b83226bc76367f9
jh70-07-30s1t03.flac:6675b866d758df78334e79e1f5e3acb8
jh70-07-30s1t04.flac:832d76e0cd95d42a775da880f7294a1b
jh70-07-30s1t05.flac:5302f7551a8eac8c49d573f59ff1b0e6
jh70-07-30s1t06.flac:cc94f318bc9a0892fe2621567bb6dc22
jh70-07-30s1t07.flac:f84e5d066a05b29adf915515d3ecc0b8
jh70-07-30s1t08.flac:8ffc191ce70ba0bbfb4582a58632cef1
jh70-07-30s1t09.flac:4b2c9895067b3dc69f0157bd04db13fb
jh70-07-30s1t10.flac:3f125cd3b534c621ca1b71bdcc7d3a17
jh70-07-30s1t11.flac:13a14a7989691b176aab0156863b5b3c
jh70-07-30s1t12.flac:bb084f3c745888a5ccd9b65782202363
jh70-07-30s2t01.flac:ef3a4cbda008c057805d85989e542e5e
jh70-07-30s2t02.flac:b7839853f2ff1fbb46afd711b49556b6
jh70-07-30s2t03.flac:25cd614e4a9df2bc47cdda9d484ccc9d
jh70-07-30s2t04.flac:94eedf5cea4c46e667c666032985ba9c
jh70-07-30s2t05.flac:d8fab00e2b33821bd68ea5d8392b3388
jh70-07-30s2t06.flac:5f5e4922363370b7d4a654d1c66b6733
jh70-07-30s2t07.flac:1ee5c0fdc459e45c979fca829fd4ef60
jh70-07-30s2t08.flac:7e4ad7900200e2b08ff1c4d27d5f10cd
jh70-07-30s2t09.flac:be7e0445fef870cd5bfcc219b6f943ea
jh70-07-30s2t10.flac:34519c68db617afa8e03cd301b2eeadc
jh70-07-30s2t11.flac:d080a06a6cdc751eb3d25fa8993890d4
Show/Hide Files:
32 files
Speed:0 KB/sec
Thanks:
darthtrader, frazer, reelclasio, deadtrail, jmoleton, miogi, Cybermoose, westkat, gmurray618, Jubal_H_Seamons, vsolusion, craigiebaby, revisitor, king0porn, jimbowarr, electrikblue, formationgibbering, greendude, xconnolly, luminarist, petem59, cnye1954, ltzed, Bulle75, newminglewood, Bulle75, RobertMuz, Smileytime, kschneid, Brad125, Brad125, jimmyheadgear, jcg1, jstraw, joebird, coolbreeze, frankstower, chopper 7, TheDude, knewgrass, kuvap, wharfratjoe, edshread, jsullivan, Mikesway1, dazed64, poordevil, thecat18, cerebus, nick71, ccder1024, GerryO, pesabi, Tubby2Step, chenango, booboo, jimf, jpc3, spduffy, davidestrada, craiger1, urbansurfer, dino7650, gregt, yater, WinD'OHpain, yf12, Bootradr, MIASO, hellopeople, walstib68, Rich Schluter, mega, brezelbaer, WRAT65, dumnugly, JeffK, Skywithflame, kckuba, daveyk, hilojack, straightdope, dtmroberts, kisumuk, 1crazyhorse, Torfinn, Paul, oldhorse, rockaroo, denkenmensch, cicada, kwin buebly, twelvelegses, bobbo, keo72467, clakclak, heungbo, kaliyuga, dbaker, mccheese, sleestak13, NaknDead,

Donate

Donations Page

LL Lists
Dead - With Source
Dead - No Source
Jerry - With Source
Jerry - No Source

Radio
gdradio.net       Nugs.net
BSR-88.1       KXCI
KDHX       Jazz
KPFA       Phempa
KFAI      

Winamp      RealPlayer      Foobar

      

Poll: drumz/space
loved it live and on tape (145)  (49%)
didn't love it live or on tape (28)  (9%)
sometimes in some shows on some drugs (97)  (33%)
not my thing AT ALL, i like the rock&roll part (23)  (7%)
    
Previous Polls

[ Script Execution time: 0.0617 sec. ] - [ GZIP: enabled ]
BtitTracker (1.3.2) by Btiteam