Welcome Guest (Login)Index How To Upload
User: Password:
Create account Recover password

Torrent's details
File Name:bela fleck and chris thile 2002-07-27.schoeps.nashphil.sbeok.shnf      71f106c4cddcc9a1200ade37fcfb5fc19a1ac007
Added:09/27/09 - 11:48:28 - ecocats - 345.27 MB
Details:Acoustic   etree --
Description:i don't see the category called "kick-ass" so i guess this one will do .. it is easily one of my favorite shows from either of these artists ... and, yes, this was seeded here in 2005, but it was only d/led 11 x ... wow ... moreover, this is the original data - shn set w/out dae ... the other one on the tracker is in flac and was ripped who knows how many times by contrast ...



Bela Fleck & Chris Thile  
RockyGrass - Lyons,CO
7.27.2002



-All-  (64:07)

01  Jam >

02  Jam >

03  Jam >

04  Jam >

05  Jam >

06  Jam >

07  Jam



No setlist, no songs, no breaks,

and 100% improvisation. It should

be listened to in one sitting.  



---Recording: NashPhil---

Audience - Up Front Center

(2) Schoeps CMC6/MK4 > Sonosax SX-M2 >

Benchmark AD2K > Digigram VX-Pocket V2 >

Sound Forge 5.0 > 24bit/48k PCM.WAV >

Sony Vaio PCG-C1VSX/K

---Mastering/Notes: NashPhil---

24bit/48k PCM.WAV > 16bit/44.1k > CDR/SHN

Resampled, Dithered & Edited with Soundforge

A bit of wind and crowd noise at times.



248468440433eae6bb79954933cc657e *fleckthile2002-07-27t01.shn
52141eccd175771e751b3b79103bb99f *fleckthile2002-07-27t02.shn
99a0c7d6e13c5f1c91c974a6c82d0692 *fleckthile2002-07-27t03.shn
255d9e179d2dd8123acdf57ab779589c *fleckthile2002-07-27t04.shn
12d9cb17f7d6e036bff0d3dfc9533f69 *fleckthile2002-07-27t05.shn
640fcf0b50083fb2cfa514fe2b9cead6 *fleckthile2002-07-27t06.shn
9e9f5f0fdb068ae90e19d8f140be5bbb *fleckthile2002-07-27t07.shn


shntool 3.0.4
Copyright (C) 2000-2007 Jason Jordan <shnutils@freeshell.org>

   length     expanded size    cdr  WAVE problems  fmt   ratio  filename
   11:49.03      125074700 B   ---   --   ---xx    shn  0.5232  fleckthile2002-07-27t01.shn
    8:12.37       86875868 B   ---   --   ---xx    shn  0.5203  fleckthile2002-07-27t02.shn
    8:41.42       92003228 B   ---   --   ---xx    shn  0.5169  fleckthile2002-07-27t03.shn
   14:39.30      155126204 B   ---   --   ---xx    shn  0.5325  fleckthile2002-07-27t04.shn
    4:28.55       47404604 B   ---   --   ---xx    shn  0.5382  fleckthile2002-07-27t05.shn
    7:53.09       83458412 B   ---   --   ---xx    shn  0.5421  fleckthile2002-07-27t06.shn
    8:21.35       88458764 B   ---   --   ---xx    shn  0.5706  fleckthile2002-07-27t07.shn
   64:05.61      678401780 B                            0.5337  (7 files)
Show/Hide Files:
10 files
Speed:0.07 KB/sec
Thanks:
gearfab, indydarkstar, dino7650, ironhippie, buckaroobonzai, BarryW, jpc3, Garcia65, petem59, dbhelm, oleo86, mjallen, pomkog, Wonkavision, Wonkavision, jvito209, blueridge, WinD'OHpain,

Donate

Donations Page

LL Lists
Dead - With Source
Dead - No Source
Jerry - With Source
Jerry - No Source

Radio
gdradio.net       Nugs.net
BSR-88.1       KXCI
KDHX       Jazz
KPFA       Phempa
KFAI      

Winamp      RealPlayer      Foobar

      

Poll: Do you wear band merch, ie shirts, hats, patches etc?
Often (38)  (21%)
From time to time (54)  (31%)
Only at shows (7)  (4%)
Rarely (73)  (42%)
I buy all my clothes at shows! (1)  (0%)
    
Previous Polls

[ Script Execution time: 0.0760 sec. ] - [ GZIP: enabled ]
BtitTracker (1.3.2) by Btiteam