Welcome Guest (Login)Index How To Upload
User: Password:
Create account Recover password

Torrent's details
File Name:gd72-05-16.sbd.unknown.10353.sbeok.shnf      da4dd02260619c22e566d5d1a854834be2a175d9
Added:01/01/11 - 07:46:34 - - 866.64 MB
Details:Grateful Dead   GD 1972   etree   etree-md5   etree-txt   etree-cmt   deadlists   base --
Staff Comment:E V orig seed 7-29-2006 - bump 8-2008, 12-2010
Preview:http://ia301115.us.archive.org/3/items/gd72-05-16.sbd.unknown.10353.sbeok.shnf/gd1972-05-16d1t11_vbr.mp3

Get the Flash Player to see this player.

Description:Grateful Dead
5/16/72
Radio Luxembourg

Source: SBD > MR@7.5ips > Reel@7.5ips > DAT > Cass > DAT (DAT-Heads Tree) > PC > SHN

Disc One/Set One [76:03]
1. Bertha
2. Me & My Uncle
3. Mr. Charlie
4. Sugaree
5. Black Throated Wind
6. Chinatown Shuffle
7. China Cat Sunflower->
8. I Know You Rider
9. Beat It On Down The Line
10. It Hurts Me Too
11. Tennessee Jed
12. Playing In The Band
13. Promised Land

Disc Two/Set Two [69:59]
1. Truckin'->
2. Drums->
3. The Other One
4. Sing Me Back Home
5. Sugar Magnolia
6. Not Fade Away->
7. Going Down The Road Feelin' Bad->
8. Not Fade Away
Encore:
9. One More Saturday Night

Notes: Initial DAT Transfer via Panasonic 3700 DAT-> Tascam 122mkII (MX-S
Cassette)-> Fostex D5-> Sony 59ES DAT-> DAT-Heads Tree Summer '96-> Sony D7-> Audiophile 2496 Soundcard@48kHz.  Editing via Cool Edit: Normalized to 99; 44.1kHzSample rate
conversion @ 350 quality; pitch correction: 102 ratio stretch.  Tracks inserted via
CDWave and SHN conversion via mkwACT

Updated 6/29/2002:
Corrected sector boundary errors on d1t13 and d2t04 using SHNTOOL.

   length     expanded size   cdr  WAVE problems filename
    7:00.70       74252684    ---   --   ---xx   gd1972-05-16d1t01.shn
    3:35.19       37970732    ---   --   ---xx   gd1972-05-16d1t02.shn
    3:51.66       40903676    ---   --   ---xx   gd1972-05-16d1t03.shn
    7:11.26       76089596    ---   --   ---xx   gd1972-05-16d1t04.shn
    6:03.61       64176716    ---   --   ---xx   gd1972-05-16d1t05.shn
    2:56.46       31154636    ---   --   ---xx   gd1972-05-16d1t06.shn
    5:50.45       61845884    ---   --   ---xx   gd1972-05-16d1t07.shn
    5:51.23       61970540    ---   --   ---xx   gd1972-05-16d1t08.shn
    3:34.38       37839020    ---   --   ---xx   gd1972-05-16d1t09.shn
    6:52.32       72752108    ---   --   ---xx   gd1972-05-16d1t10.shn
    8:44.01       92435996    ---   --   ---xx   gd1972-05-16d1t11.shn
   11:27.29      121255052    ---   --   ---xx   gd1972-05-16d1t12.shn
    2:58.43       31500380    ---   --   ---xx   gd1972-05-16d1t13.shn
   12:04.63      127861820    ---   --   ---xx   gd1972-05-16d2t01.shn
    2:27.42       26029628    ---   --   ---xx   gd1972-05-16d2t02.shn
   19:38.69      207961532    ---   --   ---xx   gd1972-05-16d2t03.shn
    9:23.65       99466124    ---   --   ---xx   gd1972-05-16d2t04.shn
    7:12.70       76369484    ---   --   ---xx   gd1972-05-16d2t05.shn
    3:55.18       41496380    ---   --   ---xx   gd1972-05-16d2t06.shn
    7:17.40       77180924    ---   --   ---xx   gd1972-05-16d2t07.shn
    3:19.24       35160092    ---   --   ---xx   gd1972-05-16d2t08.shn
    4:36.30       48757004    ---   --   ---xx   gd1972-05-16d2t09.shn
  145:55.20     1544430008 B                     (totals for 22 files, 0.5884 overall compression ratio)


bc7ade47ed67be67f49bfe5f2342b9ed  gd1972-05-16d1t01.shn
adf3dc2ac27fd44557cfe31300251113  gd1972-05-16d1t02.shn
57f4335a10795651625cb3d5dc01fd76  gd1972-05-16d1t03.shn
bd3d73f75e4528e51ce2109c50c8b218  gd1972-05-16d1t04.shn
898a4e2639f5f0c0430ba6b98ed8738d  gd1972-05-16d1t05.shn
c512bc233bafab62a498ee9ed1e2d09e  gd1972-05-16d1t06.shn
c6f67e7d7f989d0e3cd670b957297e08  gd1972-05-16d1t07.shn
73a33a3ad5c96db60029a9f635daf51e  gd1972-05-16d1t08.shn
4ce9e65094098b2e39f3bc322ff51540  gd1972-05-16d1t09.shn
9856f1c8e5fea323fc05508fb2b8f903  gd1972-05-16d1t10.shn
290f1eee1e328551b193be6949a32f50  gd1972-05-16d1t11.shn
e473bafe3d4eaff34e5b9bb3bdef4ff5  gd1972-05-16d1t12.shn
9935bce5b6919305468d93026c79fd0b  gd1972-05-16d1t13.shn
8d5cab9fde0c94a50bd1bac905ba90ec  gd1972-05-16d2t01.shn
88d5c626ffc7b32d6d011924d693e9c1  gd1972-05-16d2t02.shn
f5d68bc2d4fbb30e7a98e21369f2f12d  gd1972-05-16d2t03.shn
a16df75e2e5b02b4a93098c258f40e5c  gd1972-05-16d2t04.shn
37317c52374b717044bddafec1f27d5a  gd1972-05-16d2t05.shn
8df1a2a77a67699c6dde10cbccdc7cdf  gd1972-05-16d2t06.shn
95feb59c25c91c6cb801c7cc6b2cbf14  gd1972-05-16d2t07.shn
d11018d2e97debb9a8574a262c7c805c  gd1972-05-16d2t08.shn
b043d3c4da9865dd2b69dfa573d925f9  gd1972-05-16d2t09.shn
Show/Hide Files:
27 files
Speed:63.14 KB/sec
Thanks:
Big Hobo, HardyWeinberg, skuhn2, jdbmore, dazed64, perry, Antman, Emmett, buckaroobonzai, dscott, dazed64, poordevil, WinD'OHpain, Zeno Marx, norm, ws1995, nowaywally, macflac, gdtrfb55, Joey33, deadeasy, misterpaul71, ajones20, deadeasy, Albix12, jimmyheadgear, jdawg42, deadtrail, dplavac, Burnsie, rubberbozo, fangedesire, owsleyiii, owsleyiii, owsleyiii, owsleyiii, tyke, human304934, mehorter, marc138, rminas, pesabi, pomkog, baba1313, goother, simon23, Cranky1, greg420, john davies, tunaman, ikefr145, bluecowd, jsullivan, jack72, mr.lemonska, mmcget1, RudiKermer, RudiKermer, potheadpixie,

Donate

Donations Page

LL Lists
Dead - With Source
Dead - No Source
Jerry - With Source
Jerry - No Source

Radio
gdradio.net       Nugs.net
BSR-88.1       KXCI
KDHX       Jazz
KPFA       Phempa
KFAI      

Winamp      RealPlayer      Foobar

      

Poll: gardening...
yes, vegetables/fruit in my yard (243)  (48%)
nope, don't (128)  (25%)
just my yard, bushes, beds etc (105)  (21%)
elsewhere [work, cmmty garden etc] (23)  (4%)
    
Previous Polls

[ Script Execution time: 0.0832 sec. ] - [ GZIP: enabled ]
BtitTracker (1.3.2) by Btiteam