Welcome Guest (Login)Index How To Upload
User: Password:
Create account Recover password

Torrent's details
File Name:gd1983-12-31.sbd.grossman.popi.6102.shnf      e935654000ca7ba302a55158b182f38c0f88ccb4
Added:06/07/12 - 12:30:13 - SteveSw - 967.84 MB
Details:Grateful Dead   GD 1983   OCD   etree   etree-md5   etree-txt   etree-cmt   deadlists   base --
Staff Comment:E-Bumped For GD 83 Revisit,Originally Added 03/21/10
Description:Listeners will prefer the second Walker-SCotton.Miller source of this show.

================

Grateful Dead
San Francisco Civic Center
San Francisco, CA
12/31/83

sbd>mr>dats>wave>shn w/seek

thanks to michael grossman for the dat
dat>wave>shn by popi n. feeldz

Disc1
set 1
1..//Jack Straw
2.Peggy O
3.Minglewood Blues
4.Candyman  
5.Brother Esau
6.Tennessee Jed
7.Hell in a Bucket>
8.Don't Ease Me In
set 2
9.countdown
10.Sugar Magnolia  >
11.Touch of Grey

Disc2
Set2 cont
1.Estimated Prophet>
2.Eyes of the World>
3.Drums>
4.Space >
5.Throwing Stones>
6.Not Fade Away
Brokedown  Palace(missing)

Disc 3
set 3
1.Big Boss Man >
2.Iko Iko
3.Midnight Hour;
4.Good Night Irene
5.dead air


MD5 CHECKSUM:
eabcd18f4d6cbfaaba640731b25ec3f3 *gd83-12-31d1t10.shn
ef1f3c85e7d5b6dd032d124f667efb1d *gd83-12-31d1t02.shn
3838a79a6bddf00c07d6f725af9f021a *gd83-12-31d1t03.shn
4bb9fac6864b2627c87c66565576f6b7 *gd83-12-31d1t04.shn
55a41705fecac0662dc841a00dde3b17 *gd83-12-31d1t05.shn
cedd9d7fca90d86329ea670161eed2a2 *gd83-12-31d1t06.shn
1a1ccf1308372237e7950353aab76d3c *gd83-12-31d1t07.shn
9c9e898ab601a703a308080354740b16 *gd83-12-31d1t08.shn
7bc2aacae8628bd0e23f106588477e77 *gd83-12-31d1t09.shn
69b9e5dcf66df7bf1f4f94bad132afe8 *gd83-12-31d1t01.shn
b81d329e564255b5b22ee870ee2b5d21 *gd83-12-31d1t11.shn
a30c0f1b920e5766fdceaa82978ff910 *gd83-12-31d2t01.shn
98f7475497b0102d16995645c22f9466 *gd83-12-31d2t02.shn
7840781d082f9ddcc5fab876749c2c2c *gd83-12-31d2t03.shn
6a893ac96f99d171db1dd48ec376bfab *gd83-12-31d2t04.shn
554a805198a8cbb65a407ba48c9953be *gd83-12-31d2t05.shn
fc62a00de8c6c0e9048763e45347ddb7 *gd83-12-31d2t06.shn
7bac4487e6439fa38af1f4b580074e52 *gd83-12-31d3t01.shn
97ed7c3bd6f29c31d19042113145b9d5 *gd83-12-31d3t02.shn
5297942b63eb0e0cd138bd1df5ecc6f7 *gd83-12-31d3t03.shn
62e7e57dc47cc8bcb1f41d3ae5b5befd *gd83-12-31d3t04.shn
880e05969b3a4365ca9ed5ac4b952ca9 *gd83-12-31d3t05.shn


SHNTOOL HASH:
39fbc0bfe1be7ffa7c0d077c476df0bc  [shntool]  gd83-12-31d1t01.shn
fb325dd66130d73dc2abf44b05795ce9  [shntool]  gd83-12-31d1t02.shn
2a9bc93b1146933254fed25d8ad7c5ce  [shntool]  gd83-12-31d1t03.shn
f01a13f909e3ad32f5b756d8459bebe2  [shntool]  gd83-12-31d1t04.shn
29eb23112ac40cca7dc1c67b35b35c23  [shntool]  gd83-12-31d1t05.shn
c2bf6c72f5d0516130b8d0f03e54a69c  [shntool]  gd83-12-31d1t06.shn
97bd0c01aaa07f439d5421edb6745309  [shntool]  gd83-12-31d1t07.shn
ea53de5938a54219c08a547156a98d47  [shntool]  gd83-12-31d1t08.shn
76f6d2acbdccf07f8de4474d24767735  [shntool]  gd83-12-31d1t09.shn
2576244c060f5d4deb492271be986f6a  [shntool]  gd83-12-31d1t10.shn
d15ca67fe94e8a54fae5380d21a8d299  [shntool]  gd83-12-31d1t11.shn
385c2971f7731e3c500820cdb453e703  [shntool]  gd83-12-31d2t01.shn
e5d29e17347a7fdb0715cb661e189481  [shntool]  gd83-12-31d2t02.shn
52386a9a103052e7141f9cd32f41a648  [shntool]  gd83-12-31d2t03.shn
744f5897aed5df84e887a0fb11f7f5a5  [shntool]  gd83-12-31d2t04.shn
37d686b408badae7e61f76530b31b33a  [shntool]  gd83-12-31d2t05.shn
c75683f880badb3543b00814232d0519  [shntool]  gd83-12-31d2t06.shn
cb66c8d8af60ea2e3dde0de878ddf728  [shntool]  gd83-12-31d3t01.shn
ac035384ace0065fc310ea04c56aae2f  [shntool]  gd83-12-31d3t02.shn
8078ec6fc787e8fdcf44d31c270e569a  [shntool]  gd83-12-31d3t03.shn
7e550baabaa10a270342d830b7de0aba  [shntool]  gd83-12-31d3t04.shn
61f88e7503f2d872a314471644b67670  [shntool]  gd83-12-31d3t05.shn


SHNTOOL LEN:
   length     expanded size    cdr  WAVE problems  fmt   ratio  filename
    5:26.12       57534668 B   ---   --   ---xx    shn  0.6364  gd83-12-31d1t01.shn
    8:20.40       88294124 B   ---   --   ---xx    shn  0.5698  gd83-12-31d1t02.shn
    9:01.55       95561804 B   ---   --   ---xx    shn  0.6470  gd83-12-31d1t03.shn
    6:57.63       73707020 B   ---   --   ---xx    shn  0.6160  gd83-12-31d1t04.shn
    5:06.62       54124268 B   ---   --   ---xx    shn  0.6386  gd83-12-31d1t05.shn
    8:17.23       87724940 B   ---   --   ---xx    shn  0.6464  gd83-12-31d1t06.shn
    6:18.49       66794492 B   ---   --   ---xx    shn  0.6556  gd83-12-31d1t07.shn
    3:35.43       38027180 B   ---   --   ---xx    shn  0.6478  gd83-12-31d1t08.shn
    0:50.59        8958812 B   ---   --   ---xx    shn  0.5700  gd83-12-31d1t09.shn
    6:01.48       63793340 B   ---   --   ---xx    shn  0.6956  gd83-12-31d1t10.shn
    6:42.47       71023388 B   ---   --   ---xx    shn  0.7084  gd83-12-31d1t11.shn
   14:26.41      152858876 B   ---   --   ---xx    shn  0.6197  gd83-12-31d2t01.shn
   11:02.46      116885036 B   ---   --   ---xx    shn  0.6509  gd83-12-31d2t02.shn
   11:48.37      124978268 B   ---   --   ---xx    shn  0.5174  gd83-12-31d2t03.shn
   10:49.64      114634172 B   ---   --   ---xx    shn  0.4985  gd83-12-31d2t04.shn
    7:51.65       83237324 B   ---   --   ---xx    shn  0.6334  gd83-12-31d2t05.shn
    9:25.20       99713084 B   ---   --   ---xx    shn  0.6300  gd83-12-31d2t06.shn
    4:37.28       48928700 B   ---   --   ---xx    shn  0.5932  gd83-12-31d3t01.shn
    4:58.53       52691900 B   ---   --   ---xx    shn  0.6793  gd83-12-31d3t02.shn
    7:03.47       74727788 B   ---   --   ---xx    shn  0.6212  gd83-12-31d3t03.shn
    6:07.12       64767068 B   ---   --   ---xx    shn  0.6372  gd83-12-31d3t04.shn
    0:15.15        2680796 B   -b-   --   ---xx    shn  0.2047  gd83-12-31d3t05.shn
  155:06.29     1641647048 B                            0.6182  (22 files)
Show/Hide Files:
25 files
Speed:0 KB/sec
Thanks:
RandyBSr, poordevil, ws1995, johanfex, rockaroo, nowaywally, Zeno Marx, buckaroobonzai, marc138, macflac, dino7650, cicada, joebird, norm, Paul,

Donate

Donations Page

LL Lists
Dead - With Source
Dead - No Source
Jerry - With Source
Jerry - No Source

Radio
gdradio.net       Nugs.net
BSR-88.1       KXCI
KDHX       Jazz
KPFA       Phempa
KFAI      

Winamp      RealPlayer      Foobar

      

Poll: gardening...
yes, vegetables/fruit in my yard (232)  (49%)
nope, don't (120)  (25%)
just my yard, bushes, beds etc (99)  (20%)
elsewhere [work, cmmty garden etc] (22)  (4%)
    
Previous Polls

[ Script Execution time: 0.0782 sec. ] - [ GZIP: enabled ]
BtitTracker (1.3.2) by Btiteam