Welcome Guest (Login)Index How To Upload
User: Password:
Create account Recover password

LL Base - Source Details
SHNID / Date:89962      1978-10-26
Source Summary:Garcia:
       JGB: Pat Lee's Sony ECM 18n's (Front row balcony w/ mics on railing) > Sony 152SD MAC; Master played back on Nak Dragon> ART DI/O> Egosys Waverterminal 2496; Edited and tracked in Cool Edit 2000; boundary verification with Shntool; shn encoding; shn > flac in shntool, using shntool conv -o flac *.shn.
Details:etree   etree-md5   etree-txt   etree-cmt   ll   torrent   0   0   377   jerrysite
Source Information:Jerry Garcia Band
Paramount Theatre
Portland, OR
10/26/78

Recorded by Pat Lee
Sony 152 SD cassette deck w/ Sony ECM 18n's-Front row balcony w/ mics on railing.

Master played back on Nak Dragon> ART DI/O> Egosys Waverterminal 2496;
Edited and tracked in Cool Edit 2000; boundary verification with Shntool;
shn encoding; shn > flac in shntool, using shntool conv -o flac *.shn.

Disc One (7 tracks, 58:57)
--Set I--
d1t001. Crowd & Tuning
d1t002. The Harder They Come
d1t003. Mission in the Rain
d1t004. Simple Twist of Fate
d1t005. They Love Each Other
d1t006. Itís No Use
d1t007. Mystery Train

Disc Two (7 tracks, 60:59)
--Set II--
d2t001. Crowd & Tuning [0:44]
d2t002. Love in the Afternoon
d2t003. Reuben and Cherise
d2t004. Tore Up Over You
d2t005. Gomorrah
d2t006. //Iíll Be With Thee
d2t007. Lonesome and a Long Way From Home

SHNTOOL OUTPUT

length expanded size cdr WAVE problems filename
0:17.51 3118796 --- -- ---xx jgb1978-10-26d1t001.flac
11:55.54 126253052 --- -- ---xx jgb1978-10-26d1t002.flac
11:04.23 117183740 --- -- ---xx jgb1978-10-26d1t003.flac
10:56.32 115793708 --- -- ---xx jgb1978-10-26d1t004.flac
7:13.31 76454156 --- -- ---xx jgb1978-10-26d1t005.flac
9:17.34 98334812 --- -- ---xx jgb1978-10-26d1t006.flac
8:12.62 86934668 --- -- ---xx jgb1978-10-26d1t007.flac
0:44.10 7785164 --- -- ---xx jgb1978-10-26d2t001.flac
11:28.21 121412636 --- -- ---xx jgb1978-10-26d2t002.flac
6:41.00 70736444 --- -- ---xx jgb1978-10-26d2t003.flac
8:39.27 91615148 --- -- ---xx jgb1978-10-26d2t004.flac
6:13.21 65846636 --- -- ---xx jgb1978-10-26d2t005.flac
5:16.44 55845932 --- -- ---xx jgb1978-10-26d2t006.flac
21:57.09 232340012 --- -- ---xx jgb1978-10-26d2t007.flac
119:57.44 1269654904 B (totals for 14 files, 0.5198 overall compression ratio)

Comments


No comments...


Back

Donate

Donations Page

LL Lists
Dead - With Source
Dead - No Source
Jerry - With Source
Jerry - No Source

Radio
gdradio.net       Nugs.net
BSR-88.1       KXCI
KDHX       Jazz
KPFA       Phempa
KFAI      

Winamp      RealPlayer      Foobar

      

Poll: The car I drive daily is how old...
new, like a year or two (78)  (12%)
around 5 years old (101)  (16%)
around 10 years old (238)  (39%)
around 20 years old (92)  (15%)
antique, 25 plus years old (15)  (2%)
no car, i walk, take a train, bus etc (48)  (7%)
no car, i ride a bike or skateboard (16)  (2%)
i don't leave my house much or don't drive (17)  (2%)
    
Previous Polls

[ Script Execution time: 0.3753 sec. ] - [ GZIP: enabled ]
BtitTracker (1.3.2) by Btiteam